Results 1 to 6 of 6
  1. #1
    Convert wmv to mov

    Member Since
    Oct 16, 2008
    Posts
    2
    Convert wmv to mov
    I am new to Mac, and definitely not computer savvy when it comes to formatting and such.

    I have a wmv file (video and audio) that I'm trying to convert to mov with a program called ffmpegx, but I have no idea how to. I dragged the file to the converter and it identifies it as a asf file (??). From the Quick Preset menu, I choose MOV, and then I click on 'Encode'. A window opens up saying it's finished, but when I click on the blue circle with an i, it says:


    FFmpeg version CVS, Copyright (c) 2000-2004 Fabrice Bellard
    Mac OSX universal build for ffmpegX
    libavutil version: 49.0.0
    libavcodec version: 51.9.0
    libavformat version: 50.4.0
    Fri Oct 17 02:19:32 EDT 2008
    Seems that stream 1 comes from film source: 1000.00 (1000/1) -> 29.97 (30000/1001)
    Input #0, asf, from '/Users/owner1/Desktop/Arlene's 28 v2.wmv':
    Duration: 00:35:51.6, start: 3.000000, bitrate: 3091 kb/s
    Stream #0.0: Audio: wmav2, 44100 Hz, stereo, 320 kb/s
    Stream #0.1, 29.97 fps(r): Video: WMV3 / 0x33564D57, 720x480
    Incorrect frame rate


    So the only thing I understand is it says the frame rate is incorrect, but I have no idea what that is. I went to the Video section, and saw it says Framerate, so I tried choosing all options (Unspecified, NTSC Film, NTSC and PAL) but nothing works.

    HEEEEELLLP...!

  2. #2
    Convert wmv to mov
    louishen's Avatar
    Member Since
    Oct 22, 2007
    Location
    London
    Posts
    8,968
    Specs:
    Mac Mini Core i7 2012 | White 2009 MacBook 2 Ghz | 733 Mhz G4 Quicksilver
    try giving MPEG Streamclip a try, its a little easier to use than ffmepegx

    Squared 5 - MPEG Streamclip video converter for Mac and Windows
    Member of the Month September 2008 & August 2012 | Found advice useful? use the rep system

  3. #3
    Convert wmv to mov
    cradom's Avatar
    Member Since
    Feb 14, 2004
    Location
    Nederland, Texas
    Posts
    4,075
    Specs:
    13in macbook - 10.10.4
    Not free but I've used this: EasyWMV 1.3.6 - MacUpdate
    Craig Domingue
    (\__/)
    (='.'=) This is Bunny. Copy and paste Bunny into your
    (")_(") signature to help him gain world domination

  4. #4
    Convert wmv to mov

    Member Since
    Sep 02, 2009
    Posts
    2
    I think isquint is a good one to convert video files!

  5. #5
    Convert wmv to mov
    TattooedMac's Avatar
    Member Since
    May 19, 2009
    Location
    Waiting for a mate . . .
    Posts
    8,379
    Specs:
    21" iMac 2.9Ghz 16GB RAM & 13"MBP 2.9Ghz i7 8GB RAM 10.10.3, iPhone5 & iPad Air 2 iOS 8.3, ATV3
    i use HANDBRAKE
    Dont forget to use the Reputation System if someone has helped you out !!!
    Arguing with a zealot is only slightly easier than tunneling through a mountain with your forehead!!!!!
    MoTM ☆☆☆

  6. #6
    Convert wmv to mov

    Member Since
    Sep 08, 2009
    Posts
    19
    Specs:
    MacBook, Iphone 3G 16GB
    Dou you have Flip4Mac installed.

    I use QT pro + flip 4 mac to do the trick
    Check Out my OSX oriented blog:
    http://dontbeindifferent.blogspot.com/

Thread Information

Users Browsing this Thread

There are currently 1 users browsing this thread. (0 members and 1 guests)

Similar Threads

  1. Convert .mov to .wmv
    By isabelle in forum Movies and Video
    Replies: 4
    Last Post: 06-30-2011, 11:16 AM
  2. Need to convert from mini-DVD into wmv, mov, or avi
    By mgclenden in forum Movies and Video
    Replies: 1
    Last Post: 02-08-2010, 08:00 PM
  3. Replies: 3
    Last Post: 06-14-2009, 01:06 AM

Posting Permissions

  • You may not post new threads
  • You may not post replies
  • You may not post attachments
  • You may not edit your posts
  •